<?xml version="1.0" standalone="no"?>
<!DOCTYPE svg PUBLIC "-//W3C//DTD SVG 1.1//EN" "http://www.w3.org/Graphics/SVG/1.1/DTD/svg11.dtd" >
<svg xmlns="http://www.w3.org/2000/svg">
<metadata>Generated by IcoMoon</metadata>
<defs>
<font id="icomoon" horiz-adv-x="1024">
<font-face units-per-em="1024" ascent="960" descent="-64" />
<missing-glyph horiz-adv-x="1024" />
<glyph unicode="&#x20;" horiz-adv-x="512" d="" />
<glyph unicode="&#xe900;" glyph-name="attachment" d="M779.3 763.4c-94.2 94.2-247.6 94.2-341.7 0l-261-260.8c-1.7-1.7-2.6-4-2.6-6.4s0.9-4.7 2.6-6.4l36.9-36.9c3.5-3.5 9.2-3.5 12.7 0l261 260.8c32.4 32.4 75.5 50.2 121.3 50.2s88.9-17.8 121.2-50.2c32.4-32.4 50.2-75.5 50.2-121.2 0-45.8-17.8-88.8-50.2-121.2l-309.1-309c-40.3-40.3-105.8-40.3-146.1 0-19.5 19.5-30.2 45.4-30.2 73s10.7 53.5 30.2 73l263.9 263.8c6.7 6.6 15.5 10.3 24.9 10.3h0.1c9.4 0 18.1-3.7 24.7-10.3 6.7-6.7 10.3-15.5 10.3-24.9 0-9.3-3.7-18.1-10.3-24.7l-215.7-215.5c-1.7-1.7-2.6-4-2.6-6.4s0.9-4.7 2.6-6.4l36.9-36.9c3.5-3.5 9.2-3.5 12.7 0l215.6 215.6c19.9 19.9 30.8 46.3 30.8 74.4s-11 54.6-30.8 74.4c-41.1 41.1-107.9 41-149 0l-25.6-25.7-238.2-238.1c-32.8-32.8-50.8-76.3-50.8-122.7 0-46.3 18.1-89.8 50.8-122.5 33.9-33.8 78.3-50.7 122.7-50.7s88.8 16.9 122.6 50.7l309.2 309c45.5 45.6 70.7 106.3 70.7 170.8 0.1 64.6-25.1 125.3-70.7 170.9z" />
<glyph unicode="&#xe901;" glyph-name="audit" d="M296 710c-4.4 0-8-3.6-8-8v-48c0-4.4 3.6-8 8-8h384c4.4 0 8 3.6 8 8v48c0 4.4-3.6 8-8 8h-384zM480 566h-184c-4.4 0-8-3.6-8-8v-48c0-4.4 3.6-8 8-8h184c4.4 0 8 3.6 8 8v48c0 4.4-3.6 8-8 8zM432 108h-224v704h560v-320c0-4.4 3.6-8 8-8h56c4.4 0 8 3.6 8 8v360c0 17.7-14.3 32-32 32h-640c-17.7 0-32-14.3-32-32v-784c0-17.7 14.3-32 32-32h264c4.4 0 8 3.6 8 8v56c0 4.4-3.6 8-8 8zM872 196h-144v36.6c46.3 13.8 80 56.6 80 107.4 0 61.9-50.1 112-112 112s-112-50.1-112-112c0-50.7 33.7-93.6 80-107.4v-36.6h-144c-8.8 0-16-7.2-16-16v-152c0-8.8 7.2-16 16-16h352c8.8 0 16 7.2 16 16v152c0 8.8-7.2 16-16 16zM646 340c0 27.6 22.4 50 50 50s50-22.4 50-50-22.4-50-50-50-50 22.4-50 50zM826 74h-260v60h260v-60z" />
<glyph unicode="&#xe902;" glyph-name="check-circle-fill" d="M512 896c-247.4 0-448-200.6-448-448s200.6-448 448-448 448 200.6 448 448-200.6 448-448 448zM705.5 594.3l-210.6-292c-12.7-17.7-39-17.7-51.7 0l-124.7 172.8c-3.8 5.3 0 12.7 6.5 12.7h46.9c10.2 0 19.9-4.9 25.9-13.3l71.2-98.8 157.2 218c6 8.3 15.6 13.3 25.9 13.3h46.9c6.5 0 10.3-7.4 6.5-12.7z" />
<glyph unicode="&#xe903;" glyph-name="close" d="M563.8 448l262.5 312.9c4.4 5.2 0.7 13.1-6.1 13.1h-79.8c-4.7 0-9.2-2.1-12.3-5.7l-216.5-258.1-216.5 258.1c-3 3.6-7.5 5.7-12.3 5.7h-79.8c-6.8 0-10.5-7.9-6.1-13.1l262.5-312.9-262.5-312.9c-4.4-5.2-0.7-13.1 6.1-13.1h79.8c4.7 0 9.2 2.1 12.3 5.7l216.5 258.1 216.5-258.1c3-3.6 7.5-5.7 12.3-5.7h79.8c6.8 0 10.5 7.9 6.1 13.1l-262.5 312.9z" />
<glyph unicode="&#xe904;" glyph-name="close-circle-fill" d="M512 896c-247.4 0-448-200.6-448-448s200.6-448 448-448 448 200.6 448 448-200.6 448-448 448zM677.4 277.8l-66 0.3-99.4 118.5-99.3-118.4-66.1-0.3c-4.4 0-8 3.5-8 8 0 1.9 0.7 3.7 1.9 5.2l130.1 155-130.1 154.9c-1.2 1.5-1.9 3.3-1.9 5.2 0 4.4 3.6 8 8 8l66.1-0.3 99.3-118.5 99.3 118.4 66 0.3c4.4 0 8-3.5 8-8 0-1.9-0.7-3.7-1.9-5.2l-129.9-154.9 130-155c1.2-1.5 1.9-3.3 1.9-5.2 0-4.4-3.6-8-8-8z" />
<glyph unicode="&#xe905;" glyph-name="download" d="M505.7 299c3.2-4.1 9.4-4.1 12.6 0l112 141.7c4.1 5.2 0.4 12.9-6.3 12.9h-74.1v338.4c0 4.4-3.6 8-8 8h-60c-4.4 0-8-3.6-8-8v-338.3h-73.9c-6.7 0-10.4-7.7-6.3-12.9l112-141.8zM878 334h-60c-4.4 0-8-3.6-8-8v-154h-596v154c0 4.4-3.6 8-8 8h-60c-4.4 0-8-3.6-8-8v-198c0-17.7 14.3-32 32-32h684c17.7 0 32 14.3 32 32v198c0 4.4-3.6 8-8 8z" />
<glyph unicode="&#xe906;" glyph-name="edit" d="M257.7 208c2 0 4 0.2 6 0.5l168.2 29.5c2 0.4 3.9 1.3 5.3 2.8l423.9 423.9c3.9 3.9 3.9 10.2 0 14.1l-166.2 166.3c-1.9 1.9-4.4 2.9-7.1 2.9s-5.2-1-7.1-2.9l-423.9-423.9c-1.5-1.5-2.4-3.3-2.8-5.3l-29.5-168.2c-1.9-11.1 1.5-21.9 9.4-29.8 6.6-6.4 14.9-9.9 23.8-9.9zM325.1 382.4l362.7 362.6 73.3-73.3-362.7-362.6-88.9-15.7 15.6 89zM880 124h-736c-17.7 0-32-14.3-32-32v-36c0-4.4 3.6-8 8-8h784c4.4 0 8 3.6 8 8v36c0 17.7-14.3 32-32 32z" />
<glyph unicode="&#xe907;" glyph-name="ellipsis" d="M176 449c0-30.928 25.072-56 56-56s56 25.072 56 56v0c0 30.928-25.072 56-56 56s-56-25.072-56-56v0zM456 449c0-30.928 25.072-56 56-56s56 25.072 56 56v0c0 30.928-25.072 56-56 56s-56-25.072-56-56v0zM736 449c0-30.928 25.072-56 56-56s56 25.072 56 56v0c0 30.928-25.072 56-56 56s-56-25.072-56-56v0z" />
<glyph unicode="&#xe908;" glyph-name="file-pdf" d="M531.3 385.6l0.3 1.4c5.8 23.9 13.1 53.7 7.4 80.7-3.8 21.3-19.5 29.6-32.9 30.2-15.8 0.7-29.9-8.3-33.4-21.4-6.6-24-0.7-56.8 10.1-98.6-13.6-32.4-35.3-79.5-51.2-107.5-29.6-15.3-69.3-38.9-75.2-68.7-1.2-5.5 0.2-12.5 3.5-18.8 3.7-7 9.6-12.4 16.5-15 3-1.1 6.6-2 10.8-2 17.6 0 46.1 14.2 84.1 79.4 5.8 1.9 11.8 3.9 17.6 5.9 27.2 9.2 55.4 18.8 80.9 23.1 28.2-15.1 60.3-24.8 82.1-24.8 21.6 0 30.1 12.8 33.3 20.5 5.6 13.5 2.9 30.5-6.2 39.6-13.2 13-45.3 16.4-95.3 10.2-24.6 15-40.7 35.4-52.4 65.8zM421.6 233.7c-13.9-20.2-24.4-30.3-30.1-34.7 6.7 12.3 19.8 25.3 30.1 34.7zM509.2 469.2c5.2-8.9 4.5-35.8 0.5-49.4-4.9 19.9-5.6 48.1-2.7 51.4 0.8-0.1 1.5-0.7 2.2-2zM507.6 348.7c10.7-18.5 24.2-34.4 39.1-46.2-21.6-4.9-41.3-13-58.9-20.2-4.2-1.7-8.3-3.4-12.3-5 13.3 24.1 24.4 51.4 32.1 71.4zM663.2 283.2c0.1-0.2 0.2-0.5-0.4-0.9h-0.2l-0.2-0.3c-0.8-0.5-9-5.3-44.3 8.6 40.6 1.9 45-7.3 45.1-7.4zM854.6 671.4l-215.2 215.2c-6 6-14.1 9.4-22.6 9.4h-424.8c-17.7 0-32-14.3-32-32v-832c0-17.7 14.3-32 32-32h640c17.7 0 32 14.3 32 32v616.7c0 8.5-3.4 16.7-9.4 22.7zM790.2 634h-188.2v188.2l188.2-188.2zM792 72h-560v752h302v-216c0-23.2 18.8-42 42-42h216v-494z" />
<glyph unicode="&#xe909;" glyph-name="folder-open" d="M928 516h-108v113.6c0 17.7-14.3 32-32 32h-315l-117.3 112.2c-1.5 1.4-3.5 2.2-5.5 2.2h-254.2c-17.7 0-32-14.3-32-32v-592c0-17.7 14.3-32 32-32h698c13 0 24.8 7.9 29.7 20l134 332c1.5 3.8 2.3 7.9 2.3 12 0 17.7-14.3 32-32 32zM136 704h188.5l119.6-114.4h303.9v-73.6h-510c-13 0-24.8-7.9-29.7-20l-72.3-179.2v387.2zM771.3 192h-612.3l103.3 256h612.4l-103.4-256z" />
<glyph unicode="&#xe90a;" glyph-name="image" d="M928 800h-832c-17.7 0-32-14.3-32-32v-640c0-17.7 14.3-32 32-32h832c17.7 0 32 14.3 32 32v640c0 17.7-14.3 32-32 32zM888 168h-752v39.9l138.5 164.3 150.1-178 233.5 276.8 229.9-272.6v-30.4zM888 297.8l-223.8 265.4c-3.2 3.8-9 3.8-12.2 0l-227.4-269.6-144 170.7c-3.2 3.8-9 3.8-12.2 0l-132.4-157v420.7h752v-430.2zM304 504c48.6 0 88 39.4 88 88s-39.4 88-88 88-88-39.4-88-88 39.4-88 88-88zM304 620c15.5 0 28-12.5 28-28s-12.5-28-28-28-28 12.5-28 28 12.5 28 28 28z" />
<glyph unicode="&#xe90b;" glyph-name="info-circle" d="M512 896c-247.4 0-448-200.6-448-448s200.6-448 448-448 448 200.6 448 448-200.6 448-448 448zM512 76c-205.4 0-372 166.6-372 372s166.6 372 372 372 372-166.6 372-372-166.6-372-372-372zM464 624c0-26.51 21.49-48 48-48s48 21.49 48 48v0c0 26.51-21.49 48-48 48s-48-21.49-48-48v0zM536 512h-48c-4.4 0-8-3.6-8-8v-272c0-4.4 3.6-8 8-8h48c4.4 0 8 3.6 8 8v272c0 4.4-3.6 8-8 8z" />
<glyph unicode="&#xe90c;" glyph-name="left" d="M724 741.7v77.3c0 6.7-7.7 10.4-12.9 6.3l-450.8-352.1c-16.4-12.8-16.4-37.5 0-50.3l450.8-352.1c5.3-4.1 12.9-0.4 12.9 6.3v77.3c0 4.9-2.3 9.6-6.1 12.6l-360 281 360 281.1c3.8 3 6.1 7.7 6.1 12.6z" />
<glyph unicode="&#xe90d;" glyph-name="menu" d="M904 800h-784c-4.4 0-8-3.6-8-8v-64c0-4.4 3.6-8 8-8h784c4.4 0 8 3.6 8 8v64c0 4.4-3.6 8-8 8zM904 176h-784c-4.4 0-8-3.6-8-8v-64c0-4.4 3.6-8 8-8h784c4.4 0 8 3.6 8 8v64c0 4.4-3.6 8-8 8zM904 488h-784c-4.4 0-8-3.6-8-8v-64c0-4.4 3.6-8 8-8h784c4.4 0 8 3.6 8 8v64c0 4.4-3.6 8-8 8z" />
<glyph unicode="&#xe90e;" glyph-name="printer" d="M820 524h-40c-4.4 0-8-3.6-8-8v-40c0-4.4 3.6-8 8-8h40c4.4 0 8 3.6 8 8v40c0 4.4-3.6 8-8 8zM852 628h-120v212c0 4.4-3.6 8-8 8h-424c-4.4 0-8-3.6-8-8v-212h-120c-44.2 0-80-35.8-80-80v-328c0-17.7 14.3-32 32-32h168v-132c0-4.4 3.6-8 8-8h424c4.4 0 8 3.6 8 8v132h168c17.7 0 32 14.3 32 32v328c0 44.2-35.8 80-80 80zM360 780h304v-152h-304v152zM664 116h-304v276h304v-276zM864 256h-132v204h-440v-204h-132v292c0 6.6 5.4 12 12 12h680c6.6 0 12-5.4 12-12v-292z" />
<glyph unicode="&#xe90f;" glyph-name="right" d="M765.7 473.2l-450.8 352.1c-5.3 4.1-12.9 0.4-12.9-6.3v-77.3c0-4.9 2.3-9.6 6.1-12.6l360-281.1-360-281.1c-3.9-3-6.1-7.7-6.1-12.6v-77.3c0-6.7 7.7-10.4 12.9-6.3l450.8 352.1c16.4 12.8 16.4 37.6 0 50.4z" />
<glyph unicode="&#xe910;" glyph-name="rotate-left" d="M672 542h-528c-17.7 0-32-14.3-32-32v-414c0-17.7 14.3-32 32-32h528c17.7 0 32 14.3 32 32v414c0 17.7-14.3 32-32 32zM628 140h-440v326h440v-326zM819.3 631.5c-78.8 100.7-196 153.6-314.6 154.2l-0.2 64c0 6.5-7.6 10.1-12.6 6.1l-128-101c-4-3.1-3.9-9.1 0-12.3l128.1-101.1c5.1-4 12.7-0.4 12.6 6.1v63.9c12.9-0.1 25.9-0.9 38.8-2.5 42.1-5.2 82.1-18.2 119-38.7 38.1-21.2 71.2-49.7 98.4-84.3 27.1-34.7 46.7-73.7 58.1-115.8 11-40.7 14-82.7 8.9-124.8-0.7-5.4-1.4-10.8-2.4-16.1h74.9c14.8 103.6-11.3 213-81 302.3z" />
<glyph unicode="&#xe911;" glyph-name="rotate-right" d="M480.5 708.8c13 1.6 25.9 2.4 38.8 2.5v-63.9c0-6.5 7.5-10.1 12.6-6.1l128.1 101.1c4 3.2 4 9.2 0 12.3l-128 101c-5.1 4-12.6 0.4-12.6-6.1l-0.2-64c-118.6-0.5-235.8-53.4-314.6-154.2-69.6-89.2-95.7-198.6-81.1-302.4h74.9c-0.9 5.3-1.7 10.7-2.4 16.1-5.1 42.1-2.1 84.1 8.9 124.8 11.4 42.2 31 81.1 58.1 115.8 27.2 34.7 60.3 63.2 98.4 84.3 37 20.6 76.9 33.6 119.1 38.8zM880 542h-528c-17.7 0-32-14.3-32-32v-414c0-17.7 14.3-32 32-32h528c17.7 0 32 14.3 32 32v414c0 17.7-14.3 32-32 32zM836 140h-440v326h440v-326z" />
<glyph unicode="&#xe912;" glyph-name="scan" d="M136 576h56c4.4 0 8 3.6 8 8v176h176c4.4 0 8 3.6 8 8v56c0 4.4-3.6 8-8 8h-180c-37.6 0-68-30.4-68-68v-180c0-4.4 3.6-8 8-8zM648 760h176v-176c0-4.4 3.6-8 8-8h56c4.4 0 8 3.6 8 8v180c0 37.6-30.4 68-68 68h-180c-4.4 0-8-3.6-8-8v-56c0-4.4 3.6-8 8-8zM376 136h-176v176c0 4.4-3.6 8-8 8h-56c-4.4 0-8-3.6-8-8v-180c0-37.6 30.4-68 68-68h180c4.4 0 8 3.6 8 8v56c0 4.4-3.6 8-8 8zM888 320h-56c-4.4 0-8-3.6-8-8v-176h-176c-4.4 0-8-3.6-8-8v-56c0-4.4 3.6-8 8-8h180c37.6 0 68 30.4 68 68v180c0 4.4-3.6 8-8 8zM904 484h-784c-4.4 0-8-3.6-8-8v-56c0-4.4 3.6-8 8-8h784c4.4 0 8 3.6 8 8v56c0 4.4-3.6 8-8 8z" />
<glyph unicode="&#xe913;" glyph-name="search" d="M909.6 105.5l-259.7 259.7c40.3 52.1 62.1 115.8 62.1 182.8 0 80.2-31.3 155.4-87.9 212.1s-132 87.9-212.1 87.9-155.5-31.3-212.1-87.9c-56.7-56.6-87.9-131.9-87.9-212.1 0-80.1 31.3-155.5 87.9-212.1 56.6-56.7 131.9-87.9 212.1-87.9 67 0 130.6 21.8 182.7 62l259.7-259.6c3.2-3.2 8.4-3.2 11.6 0l43.6 43.5c3.2 3.2 3.2 8.4 0 11.6zM570.4 389.6c-42.4-42.3-98.6-65.6-158.4-65.6s-116 23.3-158.4 65.6c-42.3 42.4-65.6 98.6-65.6 158.4s23.3 116.1 65.6 158.4c42.4 42.3 98.6 65.6 158.4 65.6s116.1-23.2 158.4-65.6 65.6-98.6 65.6-158.4-23.3-116.1-65.6-158.4z" />
<glyph unicode="&#xe914;" glyph-name="tags" d="M483.2 169.7l378.2 378.3c1.7 1.7 2.5 4 2.3 6.3l-25.5 301.4c-0.7 7.8-6.8 13.9-14.6 14.6l-301.4 25.4c-2.3 0.2-4.7-0.6-6.3-2.3l-378.2-378.2c-3.1-3.1-3.1-8.2 0-11.3l334.2-334.2c3.1-3.2 8.2-3.2 11.3 0zM545.8 821.4l224.6-19 19-224.6-311.9-311.8-243.6 243.5 311.9 311.9zM605.959 635.174c8.687-8.688 20.688-14.062 33.945-14.062 26.51 0 48 21.49 48 48 0 13.257-5.374 25.259-14.063 33.946v0c-8.687 8.688-20.688 14.062-33.945 14.062-26.51 0-48-21.49-48-48 0-13.257 5.374-25.259 14.063-33.946v0zM889.7 420.2l-39.6 39.5c-3.1 3.1-8.2 3.1-11.3 0l-362-361.3-237.6 237c-3.1 3.1-8.2 3.1-11.3 0l-39.6-39.5c-3.1-3.1-3.1-8.2 0-11.3l282.8-282.3c3.1-3.1 8.2-3.1 11.3 0l407.3 406.6c3.1 3.1 3.1 8.2 0 11.3z" />
<glyph unicode="&#xe915;" glyph-name="unordered-list" d="M912 768h-584c-4.4 0-8-3.6-8-8v-56c0-4.4 3.6-8 8-8h584c4.4 0 8 3.6 8 8v56c0 4.4-3.6 8-8 8zM912 484h-584c-4.4 0-8-3.6-8-8v-56c0-4.4 3.6-8 8-8h584c4.4 0 8 3.6 8 8v56c0 4.4-3.6 8-8 8zM912 200h-584c-4.4 0-8-3.6-8-8v-56c0-4.4 3.6-8 8-8h584c4.4 0 8 3.6 8 8v56c0 4.4-3.6 8-8 8zM104 732c0-30.928 25.072-56 56-56s56 25.072 56 56v0c0 30.928-25.072 56-56 56s-56-25.072-56-56v0zM104 448c0-30.928 25.072-56 56-56s56 25.072 56 56v0c0 30.928-25.072 56-56 56s-56-25.072-56-56v0zM104 164c0-30.928 25.072-56 56-56s56 25.072 56 56v0c0 30.928-25.072 56-56 56s-56-25.072-56-56v0z" />
<glyph unicode="&#xe916;" glyph-name="zoom-in" d="M637 517h-118v134c0 4.4-3.6 8-8 8h-60c-4.4 0-8-3.6-8-8v-134h-118c-4.4 0-8-3.6-8-8v-60c0-4.4 3.6-8 8-8h118v-134c0-4.4 3.6-8 8-8h60c4.4 0 8 3.6 8 8v134h118c4.4 0 8 3.6 8 8v60c0 4.4-3.6 8-8 8zM921 93l-146 146c122.1 148.9 113.6 369.5-26 509-148 148.1-388.4 148.1-537 0-148.1-148.6-148.1-389 0-537 139.5-139.6 360.1-148.1 509-26l146-146c3.2-2.8 8.3-2.8 11 0l43 43c2.8 2.7 2.8 7.8 0 11zM696 264c-118.8-118.7-311.2-118.7-430 0-118.7 118.8-118.7 311.2 0 430 118.8 118.7 311.2 118.7 430 0 118.7-118.8 118.7-311.2 0-430z" />
<glyph unicode="&#xe917;" glyph-name="zoom-out" d="M637 517h-312c-4.4 0-8-3.6-8-8v-60c0-4.4 3.6-8 8-8h312c4.4 0 8 3.6 8 8v60c0 4.4-3.6 8-8 8zM921 93l-146 146c122.1 148.9 113.6 369.5-26 509-148 148.1-388.4 148.1-537 0-148.1-148.6-148.1-389 0-537 139.5-139.6 360.1-148.1 509-26l146-146c3.2-2.8 8.3-2.8 11 0l43 43c2.8 2.7 2.8 7.8 0 11zM696 264c-118.8-118.7-311.2-118.7-430 0-118.7 118.8-118.7 311.2 0 430 118.8 118.7 311.2 118.7 430 0 118.7-118.8 118.7-311.2 0-430z" />
<glyph unicode="&#xe918;" glyph-name="fullscreen" d="M290 723.6l43.9 43.9c4.7 4.7 1.9 12.8-4.7 13.6l-160.2 18.9c-5.1 0.6-9.5-3.7-8.9-8.9l18.9-160.2c0.8-6.6 8.9-9.4 13.6-4.7l43.7 43.7 133.7-133.6c3.1-3.1 8.2-3.1 11.3 0l42.4 42.3c3.1 3.1 3.1 8.2 0 11.3l-133.7 133.7zM642.7 536.3c3.1-3.1 8.2-3.1 11.3 0l133.7 133.6 43.7-43.7c4.7-4.7 12.8-1.9 13.6 4.7l18.9 160.1c0.6 5.1-3.7 9.5-8.9 8.9l-160.2-18.9c-6.6-0.8-9.4-8.9-4.7-13.6l43.9-43.9-133.7-133.5c-3.1-3.1-3.1-8.2 0-11.3l42.4-42.4zM845 265.1c-0.8 6.6-8.9 9.4-13.6 4.7l-43.7-43.7-133.7 133.6c-3.1 3.1-8.2 3.1-11.3 0l-42.4-42.3c-3.1-3.1-3.1-8.2 0-11.3l133.7-133.7-43.9-43.9c-4.7-4.7-1.9-12.8 4.7-13.6l160.2-18.9c5.1-0.6 9.5 3.7 8.9 8.9l-18.9 160.2zM381.3 359.7c-3.1 3.1-8.2 3.1-11.3 0l-133.7-133.6-43.7 43.7c-4.7 4.7-12.8 1.9-13.6-4.7l-18.9-160.1c-0.6-5.1 3.7-9.5 8.9-8.9l160.2 18.9c6.6 0.8 9.4 8.9 4.7 13.6l-43.9 43.8 133.7 133.6c3.1 3.1 3.1 8.2 0 11.3l-42.4 42.4z" />
<glyph unicode="&#xe919;" glyph-name="book" d="M832 896h-640c-17.7 0-32-14.3-32-32v-832c0-17.7 14.3-32 32-32h640c17.7 0 32 14.3 32 32v832c0 17.7-14.3 32-32 32zM572 824h96v-209.9l-46.5 33.9-49.5-35.4v211.4zM792 72h-560v752h280v-296.9c0-3.3 1-6.6 3-9.3 5.1-7.2 15.1-8.9 22.3-3.7l83.8 59.9 81.4-59.4c2.7-2 6-3.1 9.4-3.1 8.8 0 16 7.2 16 16v296.5h64v-752z" />
<glyph unicode="&#xe91a;" glyph-name="down" d="M884 704h-75c-5.1 0-9.9-2.5-12.9-6.6l-284.1-391.6-284.1 391.6c-3 4.1-7.8 6.6-12.9 6.6h-75c-6.5 0-10.3-7.4-6.5-12.7l352.6-486.1c12.8-17.6 39-17.6 51.7 0l352.6 486.1c3.9 5.3 0.1 12.7-6.4 12.7z" />
<glyph unicode="&#xe91b;" glyph-name="up" d="M890.5 204.7l-352.6 486.1c-12.8 17.6-39 17.6-51.7 0l-352.7-486.1c-3.8-5.3-0.1-12.7 6.5-12.7h75c5.1 0 9.9 2.5 12.9 6.6l284.1 391.6 284.1-391.6c3-4.1 7.8-6.6 12.9-6.6h75c6.5 0 10.3 7.4 6.5 12.7z" />
<glyph unicode="&#xe91c;" glyph-name="hand" d="M862.484 767.678c-13.722 0-26.872-2.29-38.88-6.868v5.724c0 64.106-52.030 116.766-116.64 116.766-15.44 0-29.732-2.86-43.454-8.586-13.724 49.226-58.892 85.286-112.070 85.286-53.174 0-98.344-36.060-112.066-84.714-13.15 5.152-28.016 8.586-43.454 8.586-64.040 0-116.64-52.086-116.64-116.766v-335.42l-35.45 35.488c-21.728 21.752-51.46 33.772-82.334 33.772-30.876 0-60.036-12.020-81.764-33.772-21.724-21.75-33.732-51.514-33.732-82.422 0-30.338 11.436-58.956 32.59-81.28l212.126-258.146c0.572-0.572 0.572-1.144 1.144-1.718l1.144-1.144c6.29-6.296 12.58-12.592 18.868-19.46 19.44-20.608 40.024-41.786 68.612-58.384 33.162-19.46 70.9-28.62 115.498-28.62h192.114c77.76 0 151.518 32.054 206.408 91.010 26.3 28.046 46.884 60.1 61.18 95.588 14.864 36.632 22.298 75.556 22.298 115.050v413.264c1.144 64.68-50.888 116.766-115.498 116.766zM838.47 79.67c-40.596-42.93-93.77-66.398-150.374-66.398h-191.542c-67.47 0-93.2 26.33-128.076 63.536-6.29 6.296-12.58 13.164-19.44 20.032l-211.558 258.148c-0.57 1.144-1.714 1.716-2.286 2.86-7.434 7.442-11.436 17.172-11.436 27.476 0 10.302 4.002 20.034 11.436 27.474 7.432 7.44 17.152 11.448 27.444 11.448s20.012-4.006 27.446-11.448c52.35-51.8 82.82-81.694 91.408-89.68 12.88-11.98 30.408-20.644 47.44-15.096 21.744 7.082 27.536 31.494 27.536 77.3v381.786c0 21.178 17.724 38.922 38.88 38.922s38.88-17.744 38.88-38.922v-314.24c0-21.752 17.154-38.924 38.88-38.924 21.728 0 38.88 17.172 38.88 38.924v390.366c0 21.178 17.726 38.92 38.88 38.92 21.156 0 38.88-17.742 38.88-38.92v-390.368c0-21.752 17.154-38.924 38.88-38.924 21.728 0 38.88 17.172 38.88 38.924v314.24c0 21.178 17.726 38.922 38.88 38.922 21.158 0 38.882-17.744 38.882-38.922v-332.558c0-21.75 17.154-38.92 38.88-38.92 21.728 0 38.88 17.17 38.88 38.92v216.364c0 21.178 17.726 38.92 38.88 38.92 21.156 0 38.88-17.742 38.88-38.92v-413.836h0.572c0-57.812-22.87-115.050-62.894-157.406z" />
<glyph unicode="&#xe91d;" glyph-name="cursor" d="M631.339 873.771c2.645 0.583 5.682 0.917 8.798 0.917 23.564 0 42.667-19.103 42.667-42.667 0-18.776-12.128-34.719-28.978-40.423l-0.301-0.088-98.859-32.896v-267.947h21.333c23.564 0 42.667-19.103 42.667-42.667s-19.103-42.667-42.667-42.667h-21.333v-267.904l98.816-32.939c17.15-5.792 29.278-21.736 29.278-40.512 0-23.564-19.103-42.667-42.667-42.667-3.116 0-6.154 0.334-9.079 0.968l0.281-0.051-4.779 1.28-114.517 38.187-114.517-38.187c-4.020-1.384-8.652-2.183-13.471-2.183-16.982 0-31.646 9.921-38.514 24.283l-0.111 0.257-1.877 4.651c-1.384 4.020-2.183 8.652-2.183 13.471 0 16.982 9.921 31.646 24.283 38.514l0.257 0.111 4.651 1.877 98.816 32.896v267.947h-21.333c-23.564 0-42.667 19.103-42.667 42.667s19.103 42.667 42.667 42.667h21.333v267.947l-98.816 32.896-4.651 1.835c-14.626 6.976-24.552 21.644-24.552 38.63 0 4.833 0.803 9.478 2.284 13.809l-0.089-0.3 1.877 4.608c6.978 14.619 21.643 24.54 38.625 24.54 4.819 0 9.451-0.799 13.772-2.271l-0.3 0.089 114.517-38.144 114.517 38.144z" />
<glyph unicode="&#xe91e;" glyph-name="vertical-left" d="M762 796h-64c-4.4 0-8-3.6-8-8v-688c0-4.4 3.6-8 8-8h64c4.4 0 8 3.6 8 8v688c0 4.4-3.6 8-8 8zM254 796v-72.4c0-9.5 4.2-18.4 11.4-24.5l299.2-251.1-299.2-251.1c-7.2-6.1-11.4-15-11.4-24.5v-72.4c0-6.8 7.9-10.5 13.1-6.1l421.9 354.1-421.9 354.1c-5.2 4.4-13.1 0.7-13.1-6.1z" />
<glyph unicode="&#xe91f;" glyph-name="vertical-right" d="M326 796h-64c-4.4 0-8-3.6-8-8v-688c0-4.4 3.6-8 8-8h64c4.4 0 8 3.6 8 8v688c0 4.4-3.6 8-8 8zM770 723.6v72.4c0 6.8-7.9 10.5-13.1 6.1l-421.9-354.1 421.9-354.1c5.2-4.4 13.1-0.7 13.1 6.1v72.4c0 9.4-4.2 18.4-11.4 24.5l-299.2 251.1 299.2 251.1c7.2 6.1 11.4 15.1 11.4 24.5z" />
<glyph unicode="&#xe920;" glyph-name="vertical-align-bottom" d="M859.9 180h-695.8c-4.5 0-8.1-3.6-8.1-8v-60c0-4.4 3.6-8 8.1-8h695.8c4.5 0 8.1 3.6 8.1 8v60c0 4.4-3.6 8-8.1 8zM505.7 291c3.2-4.1 9.4-4.1 12.6 0l112 141.7c4.1 5.2 0.4 12.9-6.3 12.9h-74.1v338.4c0 4.4-3.6 8-8 8h-60c-4.4 0-8-3.6-8-8v-338.3h-73.9c-6.7 0-10.4-7.7-6.3-12.9l112-141.8z" />
<glyph unicode="&#xe921;" glyph-name="vertical-align-top" d="M859.9 792h-695.8c-4.5 0-8.1-3.6-8.1-8v-60c0-4.4 3.6-8 8.1-8h695.8c4.5 0 8.1 3.6 8.1 8v60c0 4.4-3.6 8-8.1 8zM518.3 605c-3.2 4.1-9.4 4.1-12.6 0l-112-141.7c-4.1-5.2-0.4-12.9 6.3-12.9h73.9v-338.4c0-4.4 3.6-8 8-8h60c4.4 0 8 3.6 8 8v338.3h74.1c6.7 0 10.4 7.7 6.3 12.9l-112 141.8z" />
<glyph unicode="&#xe922;" glyph-name="minus-circle" d="M696 480h-368c-4.4 0-8-3.6-8-8v-48c0-4.4 3.6-8 8-8h368c4.4 0 8 3.6 8 8v48c0 4.4-3.6 8-8 8zM512 896c-247.4 0-448-200.6-448-448s200.6-448 448-448 448 200.6 448 448-200.6 448-448 448zM512 76c-205.4 0-372 166.6-372 372s166.6 372 372 372 372-166.6 372-372-166.6-372-372-372z" />
<glyph unicode="&#xe923;" glyph-name="plus-circle" d="M696 480h-152v152c0 4.4-3.6 8-8 8h-48c-4.4 0-8-3.6-8-8v-152h-152c-4.4 0-8-3.6-8-8v-48c0-4.4 3.6-8 8-8h152v-152c0-4.4 3.6-8 8-8h48c4.4 0 8 3.6 8 8v152h152c4.4 0 8 3.6 8 8v48c0 4.4-3.6 8-8 8zM512 896c-247.4 0-448-200.6-448-448s200.6-448 448-448 448 200.6 448 448-200.6 448-448 448zM512 76c-205.4 0-372 166.6-372 372s166.6 372 372 372 372-166.6 372-372-166.6-372-372-372z" />
<glyph unicode="&#xe924;" glyph-name="loading" d="M512-21.312c259.128 0.086 469.16 210.171 469.16 469.312 0 259.194-210.118 469.312-469.312 469.312s-469.312-210.118-469.312-469.312c0-52.596 8.652-103.171 24.61-150.38l-0.971 3.308c5.357-17.885 21.667-30.697 40.969-30.697 23.576 0 42.688 19.112 42.688 42.688 0 5.299-0.966 10.373-2.73 15.055l0.097-0.294c-12.26 35.916-19.337 77.291-19.337 120.32 0 212.077 171.923 384 384 384s384-171.923 384-384c0-212.029-171.845-383.922-383.856-384h-0.007c-0.493 0.020-1.071 0.032-1.653 0.032-23.576 0-42.688-19.112-42.688-42.688s19.112-42.688 42.688-42.688c0.581 0 1.16 0.012 1.735 0.035l-0.083-0.003z" />
<glyph unicode="&#xe925;" glyph-name="down-circle" d="M690 555h-46.9c-10.2 0-19.9-4.9-25.9-13.2l-105.2-145.4-105.2 145.4c-6 8.3-15.6 13.2-25.9 13.2h-46.9c-6.5 0-10.3-7.4-6.5-12.7l178-246c3.2-4.4 9.7-4.4 12.9 0l178 246c3.9 5.3 0.1 12.7-6.4 12.7zM512 896c-247.4 0-448-200.6-448-448s200.6-448 448-448 448 200.6 448 448-200.6 448-448 448zM512 76c-205.4 0-372 166.6-372 372s166.6 372 372 372 372-166.6 372-372-166.6-372-372-372z" />
<glyph unicode="&#xe926;" glyph-name="setting" d="M924.8 334.3l-65.5 56c3.1 19 4.7 38.4 4.7 57.8s-1.6 38.8-4.7 57.8l65.5 56c10.1 8.6 13.8 22.6 9.3 35.2l-0.9 2.6c-18.1 50.5-44.9 96.9-79.7 137.9l-1.8 2.1c-8.6 10.1-22.5 13.9-35.1 9.5l-81.3-28.9c-30 24.6-63.5 44-99.7 57.6l-15.7 85c-2.4 13.1-12.7 23.3-25.8 25.7l-2.7 0.5c-52.1 9.4-106.9 9.4-159 0l-2.7-0.5c-13.1-2.4-23.4-12.6-25.8-25.7l-15.8-85.4c-35.9-13.6-69.2-32.9-99-57.4l-81.9 29.1c-12.5 4.4-26.5 0.7-35.1-9.5l-1.8-2.1c-34.8-41.1-61.6-87.5-79.7-137.9l-0.9-2.6c-4.5-12.5-0.8-26.5 9.3-35.2l66.3-56.6c-3.1-18.8-4.6-38-4.6-57.1 0-19.2 1.5-38.4 4.6-57.1l-66.3-56.6c-10.1-8.6-13.8-22.6-9.3-35.2l0.9-2.6c18.1-50.4 44.9-96.9 79.7-137.9l1.8-2.1c8.6-10.1 22.5-13.9 35.1-9.5l81.9 29.1c29.8-24.5 63.1-43.9 99-57.4l15.8-85.4c2.4-13.1 12.7-23.3 25.8-25.7l2.7-0.5c26.1-4.7 52.8-7.1 79.5-7.1s53.5 2.4 79.5 7.1l2.7 0.5c13.1 2.4 23.4 12.6 25.8 25.7l15.7 85c36.2 13.6 69.7 32.9 99.7 57.6l81.3-28.9c12.5-4.4 26.5-0.7 35.1 9.5l1.8 2.1c34.8 41.1 61.6 87.5 79.7 137.9l0.9 2.6c4.5 12.3 0.8 26.3-9.3 35zM788.3 494.1c2.5-15.1 3.8-30.6 3.8-46.1s-1.3-31-3.8-46.1l-6.6-40.1 74.7-63.9c-11.3-26.1-25.6-50.7-42.6-73.6l-92.8 32.9-31.4-25.8c-23.9-19.6-50.5-35-79.3-45.8l-38.1-14.3-17.9-97c-28.1-3.2-56.8-3.2-85 0l-17.9 97.2-37.8 14.5c-28.5 10.8-55 26.2-78.7 45.7l-31.4 25.9-93.4-33.2c-17 22.9-31.2 47.6-42.6 73.6l75.5 64.5-6.5 40c-2.4 14.9-3.7 30.3-3.7 45.5 0 15.3 1.2 30.6 3.7 45.5l6.5 40-75.5 64.5c11.3 26.1 25.6 50.7 42.6 73.6l93.4-33.2 31.4 25.9c23.7 19.5 50.2 34.9 78.7 45.7l37.9 14.3 17.9 97.2c28.1 3.2 56.8 3.2 85 0l17.9-97 38.1-14.3c28.7-10.8 55.4-26.2 79.3-45.8l31.4-25.8 92.8 32.9c17-22.9 31.2-47.6 42.6-73.6l-74.7-63.9 6.5-39.9zM512 634c-97.2 0-176-78.8-176-176s78.8-176 176-176 176 78.8 176 176-78.8 176-176 176zM591.2 378.8c-21.2-21.1-49.3-32.8-79.2-32.8s-58 11.7-79.2 32.8c-21.1 21.2-32.8 49.3-32.8 79.2s11.7 58 32.8 79.2c21.2 21.2 49.3 32.8 79.2 32.8s58-11.6 79.2-32.8c21.1-21.2 32.8-49.3 32.8-79.2s-11.7-58-32.8-79.2z" />
<glyph unicode="&#xe927;" glyph-name="up-circle" d="M518.5 599.7c-3.2 4.4-9.7 4.4-12.9 0l-178-246c-3.8-5.3 0-12.7 6.5-12.7h46.9c10.2 0 19.9 4.9 25.9 13.2l105.1 145.4 105.2-145.4c6-8.3 15.6-13.2 25.9-13.2h46.9c6.5 0 10.3 7.4 6.5 12.7l-178 246zM512 896c-247.4 0-448-200.6-448-448s200.6-448 448-448 448 200.6 448 448-200.6 448-448 448zM512 76c-205.4 0-372 166.6-372 372s166.6 372 372 372 372-166.6 372-372-166.6-372-372-372z" />
<glyph unicode="&#xe928;" glyph-name="minus" d="M872 486h-720c-4.4 0-8-3.6-8-8v-60c0-4.4 3.6-8 8-8h720c4.4 0 8 3.6 8 8v60c0 4.4-3.6 8-8 8z" />
<glyph unicode="&#xe929;" glyph-name="plus" d="M482 808h60q8 0 8-8v-704q0-8-8-8h-60q-8 0-8 8v704q0 8 8 8zM176 486h672q8 0 8-8v-60q0-8-8-8h-672q-8 0-8 8v60q0 8 8 8z" />
<glyph unicode="&#xe92a;" glyph-name="export" d="M888.3 202.6h-53.8c-4.2 0-7.7-3.5-7.7-7.7v-61.8h-629.7v629.8h629.8v-61.8c0-4.2 3.5-7.7 7.7-7.7h53.8c4.2 0 7.7 3.4 7.7 7.7v100.2c0 17-13.7 30.7-30.7 30.7h-706.7c-17 0-30.7-13.7-30.7-30.7v-706.6c0-17 13.7-30.7 30.7-30.7h706.6c17 0 30.7 13.7 30.7 30.7v100.2c0 4.3-3.5 7.7-7.7 7.7zM906.9 454.3l-141.9 112c-5.3 4.2-13 0.4-13-6.3v-76h-314c-4.4 0-8-3.6-8-8v-56c0-4.4 3.6-8 8-8h314v-76c0-6.7 7.8-10.5 13-6.3l141.9 112c4.1 3.2 4.1 9.4 0 12.6z" />
<glyph unicode="&#xe92b;" glyph-name="save" d="M893.3 666.7l-162.6 162.6c-7.5 7.5-16.7 13-26.7 16v2.7h-560c-17.7 0-32-14.3-32-32v-736c0-17.7 14.3-32 32-32h736c17.7 0 32 14.3 32 32v541.5c0 17-6.7 33.2-18.7 45.2zM384 776h256v-104h-256v104zM840 120h-656v656h136v-136c0-17.7 14.3-32 32-32h320c17.7 0 32 14.3 32 32v114.2l136-136v-498.2zM512 518c-79.5 0-144-64.5-144-144s64.5-144 144-144 144 64.5 144 144-64.5 144-144 144zM512 294c-44.2 0-80 35.8-80 80s35.8 80 80 80 80-35.8 80-80-35.8-80-80-80z" />
<glyph unicode="&#xe92c;" glyph-name="uniE92C" horiz-adv-x="1076" d="M309.5 682.489c9.737-50.994 26.806-91.668 51.828-122.024 25.301 34.368 43.49 75.545 51.524 120.247l0.265 1.777h-103.616zM597.228 898h-473.664c-37.164 0-61.565-28.536-61.565-63.745v-478.971c0-35.205 24.401-63.741 61.565-63.741h473.664c37.164 0 61.565 28.536 61.565 63.741v478.975c0 35.209-23.78 63.741-61.565 63.741zM530.776 384.406c-71.302 22.461-128.638 52.817-172.513 90.458-41.47-30.961-94.5-58.888-158.509-84.992-2.444 3.639-3.647 4.857-3.647 3.639-13.593 17.781-28.19 33.477-44.155 47.667l-0.341 0.297c66.453 17.604 120.103 44.317 162.155 79.526-28.668 38.851-50.586 92.882-65.832 161.484h-75.608v49.783h167.043c-6.002 23.793-12.681 43.819-20.634 63.187l1.121-3.085c20.134 3.643 42.052 7.891 65.832 12.142 10.978-32.198 17.69-52.817 21.336-61.925l-42.052-10.928h185.315v-49.775h-71.341c-11.27-63.245-35.652-119.341-70.309-167.556l0.83 1.215c45.116-33.994 98.767-55.862 160.332-65.56-14.043-22.469-27.427-44.325-39.026-65.572zM956.375 465.678h-228.491c-11.754 0-21.142-7.96-21.142-18.256 0-9.834 9.388-18.264 21.142-18.264h214.371c15.983 0 28.668-11.231 28.668-24.808v-345.030c0-13.578-13.151-24.828-28.668-24.828h-327.647c-15.983 0-28.668 11.25-28.668 24.828v167.136c0.003 0.123 0.005 0.268 0.005 0.413 0 9.868-8 17.868-17.868 17.868-0.335 0-0.667-0.009-0.997-0.027l0.046 0.002c-0.363 0.027-0.785 0.042-1.212 0.042-9.729 0-17.616-7.887-17.616-17.616 0-0.24 0.005-0.478 0.014-0.716l-0.001 0.034v-179.302c0-27.155 20.716-49.155 52.177-49.155h355.888c31.5 0 52.642 22.003 52.177 48.685v369.838c0 27.155-20.677 49.159-52.177 49.159zM679.935 158.572c10.823 0 19.28 10.3 19.28 17.317v111.895c0 7.022-8.922 17.321-19.28 17.321s-19.241-10.3-19.241-17.321v-111.891c0-7.018 8.457-17.317 19.241-17.317zM798.409 104.262v255.15c0 7.018-8.457 17.321-19.28 17.321-10.319 0-19.28-10.303-19.28-17.321v-255.146c0-7.022 8.457-17.321 19.28-17.321s19.28 10.3 19.28 17.321zM896.672 175.89v111.895c0 7.022-8.961 17.321-19.28 17.321s-19.28-10.3-19.28-17.321v-111.891c0-7.018 8.457-17.317 19.28-17.317s19.28 10.3 19.28 17.317z" />
<glyph unicode="&#xe92d;" glyph-name="delete" d="M360 776h-8c4.4 0 8 3.6 8 8v-8h304v8c0-4.4 3.6-8 8-8h-8v-72h72v80c0 35.3-28.7 64-64 64h-320c-35.3 0-64-28.7-64-64v-80h72v72zM864 704h-704c-17.7 0-32-14.3-32-32v-32c0-4.4 3.6-8 8-8h60.4l24.7-523c1.6-34.1 29.8-61 63.9-61h454c34.2 0 62.3 26.8 63.9 61l24.7 523h60.4c4.4 0 8 3.6 8 8v32c0 17.7-14.3 32-32 32zM731.3 120h-438.6l-24.2 512h487l-24.2-512z" />
<glyph unicode="&#xe92e;" glyph-name="pencil2" d="M384 320l128 64 448 448-64 64-448-448-64-128zM289.3 92.902c-31.632 66.728-65.666 100.762-132.396 132.394l99.096 272.792 128 77.912 384 384h-192l-384-384-192-640 640 192 384 384v192l-384-384-77.912-128z" />
<glyph unicode="&#xe92f;" glyph-name="uniE92F" d="M911.433 727.603c21.787 7.262 36.312 29.050 36.312 50.837s-14.525 36.312-36.312 43.574l-377.645 130.723c-21.787 7.262-50.837 7.262-65.362 7.262-21.787 0-36.312 0-50.837-7.262l-377.645-123.461c-21.787-7.262-36.312-29.050-36.312-50.837 0-14.525 14.525-36.312 36.312-43.574l384.908-130.723c14.525-7.262 43.574-7.262 58.099-7.262 21.787 0 43.574 0 58.099 7.262l370.383 123.461zM482.95 669.504c-21.787 0-36.312 0-36.312 7.262l-319.546 101.674 312.284 101.674c7.262 7.262 14.525 7.262 29.050 7.262s29.050 0 36.312-7.262l312.284-108.936-305.021-94.411c-7.262-7.262-14.525-7.262-29.050-7.262zM882.383 640.454c-72.624-21.787-312.284-101.674-312.284-101.674h-7.262c-29.050-21.787-50.837-50.837-50.837-79.887v-464.794c0-14.525 7.262-29.050 21.787-43.574 7.262-7.262 21.787-7.262 29.050-7.262h14.525c72.624 21.787 312.284 101.674 319.546 108.936 29.050 14.525 50.837 50.837 50.837 79.887v457.532c0 14.525-7.262 29.050-21.787 43.574-14.525 7.262-29.050 14.525-43.574 7.262zM867.858 117.56s-188.823-65.362-283.234-94.411v428.482s7.262 14.525 14.525 14.525c29.050 7.262 196.085 65.362 275.972 94.411v-428.482l-7.262-14.525zM388.539 531.518c-7.262 0-246.922 79.887-319.546 108.936-14.525 7.262-29.050 0-43.574-7.262s-21.787-21.787-21.787-43.574v-464.794c0-29.050 21.787-58.099 50.837-79.887 7.262 0 246.922-79.887 319.546-108.936h14.525c7.262 0 21.787 0 29.050 7.262 14.525 21.787 21.787 36.312 21.787 50.837v464.794c0 29.050-21.787 58.099-50.837 72.624zM366.752 23.149c-94.411 29.050-283.234 94.411-283.234 94.411l-7.262 14.525v428.482c79.887-29.050 254.184-79.887 275.972-94.411 7.262 0 14.525-7.262 14.525-14.525v-428.482z" />
<glyph unicode="&#xe930;" glyph-name="info" d="M512 960c-281.6 0-512-230.4-512-512s230.4-512 512-512 512 230.4 512 512-230.327 512-512 512zM473.746 768c19.237 12.8 38.327 25.6 63.927 25.6s44.763-6.363 64-25.6c19.31-12.8 25.6-31.963 25.6-57.637 0-19.237-6.437-38.4-25.6-57.563-19.31-12.8-38.4-25.6-64-25.6s-44.763 12.8-63.927 25.6c-19.31 12.8-25.6 31.963-25.6 57.563-0.146 19.237 6.29 38.546 25.6 57.637zM652.873 140.8c-32.037-12.8-51.273-19.31-70.437-25.6-19.237-6.363-38.327-6.363-63.927-6.363-38.4 0-64 6.363-83.31 25.6-19.237 19.237-31.963 38.4-31.963 64v31.963c0 12.8 6.437 25.6 6.437 38.4l38.327 128c6.437 12.8 6.437 25.6 6.437 32.037 0 12.727 6.363 19.237 6.363 31.963 0 19.31-6.363 25.6-12.8 32.037h-31.817c-6.363 0-19.237 0-31.963-6.437-12.8-0.073-19.31-6.51-25.6-6.51l12.873 38.546c25.527 6.363 44.837 19.017 70.437 25.454 19.237 6.437 44.763 12.8 63.927 12.8 38.4 0 64-6.363 83.31-25.6 19.237-19.31 31.963-38.4 31.963-64v-31.963c0-12.8-6.363-25.6-6.363-38.4l-38.693-127.927c0-12.8-6.363-19.31-6.363-32.037 0-12.654-6.437-25.6-6.437-31.963 0-19.31 6.437-25.6 12.8-32.037 6.363-6.363 19.31-6.363 38.4-6.363 6.363 0 19.31 0 31.963 6.437 12.8 0 19.31 6.363 25.6 6.363l-19.163-38.4z" />
<glyph unicode="&#xe931;" glyph-name="indicateSeal" d="M378.13 118.078h-133.104c-57.709 0.066-104.473 46.831-104.539 104.533v570.849c0.073 57.704 46.835 104.461 104.533 104.528h444.159c57.709-0.066 104.473-46.831 104.539-104.533v-299.618c0.007-0.249 0.012-0.541 0.012-0.834 0-16.46-13.343-29.803-29.803-29.803s-29.803 13.343-29.803 29.803c0 0.293 0.004 0.586 0.013 0.877l-0.001-0.043v299.622c-0.020 24.818-20.137 44.931-44.955 44.945h-444.154c-24.796-0.033-44.888-20.125-44.921-44.918v-570.869c0.027-24.801 20.121-44.9 44.918-44.933h133.107c16.097-0.465 28.969-13.625 28.969-29.792s-12.872-29.327-28.926-29.791l-0.043-0.001zM284.912 720.932h166.506q29.208 0 29.208-29.208v0q0-29.208-29.208-29.208h-166.506q-29.208 0-29.208 29.208v0q0 29.208 29.208 29.208zM284.912 581.075h247.645q29.208 0 29.208-29.208v0q0-29.208-29.208-29.208h-247.645q-29.208 0-29.208 29.208v0q0 29.208 29.208 29.208zM284.912 441.206h83.942q29.208 0 29.208-29.208v0q0-29.208-29.208-29.208h-83.942q-29.208 0-29.208 29.208v0q0 29.208 29.208 29.208zM650.718-2c-128.396 0-232.807 104.376-232.807 232.795s104.411 232.807 232.807 232.807 232.795-104.434 232.795-232.807-104.434-232.795-232.795-232.795zM650.718 417.233c-102.81 0-186.437-83.627-186.437-186.437s83.627-186.426 186.437-186.426 186.426 83.627 186.426 186.426-83.627 186.437-186.426 186.437zM542.744 290.776v22.688h33.507v21.158h22.011v-21.158h20.071v-22.688h-20.071v-40.517c5.849 2.871 12.791 5.541 19.987 7.611l0.926 0.228v-21.742c-8.069-3.178-14.953-6.689-21.444-10.768l0.532 0.312v-61.429q0-17.349-11.683-25.551c-3.382-2.509-7.423-4.336-11.812-5.192l-0.187-0.030c-3.195-0.476-6.883-0.748-10.634-0.748-0.817 0-1.631 0.013-2.441 0.038l0.118-0.003h-9.977v21.859h7.722q9.86 0 13.19 3.505 3.68 3.68 3.68 11.765v41.521c-9.753-4.827-21.097-8.193-33.068-9.461l-0.439-0.038v23.051c6.587 0.846 12.512 2.217 18.199 4.108l-0.675-0.194c6.194 2.472 11.433 5.107 16.413 8.126l-0.489-0.275v53.824zM629.362 335.171h22.338v-37.689h40.283v-21.976h-40.283v-110.031c0-4.907 0.514-7.909 1.542-9.031s3.89-1.659 8.318-1.659h30.376v-21.8h-38.694q-11.987 0-17.525 5.584c-2.022 1.746-3.613 3.934-4.632 6.418l-0.041 0.113q-1.659 5.713-1.671 20.434zM700.301 335.171h21.976v-37.689h40.645v-21.976h-40.645v-109.189q0-7.606 2.138-9.744 1.659-1.787 6.893-1.787h31.614v-21.8h-40.645q-10.445 0-16.041 5.701c-1.847 1.773-3.333 3.907-4.346 6.29l-0.047 0.124q-1.542 4.872-1.542 14.499z" />
<glyph unicode="&#xea52;" glyph-name="checkbox-checked" d="M896 960h-768c-70.4 0-128-57.6-128-128v-768c0-70.4 57.6-128 128-128h768c70.4 0 128 57.6 128 128v768c0 70.4-57.6 128-128 128zM448 165.49l-237.254 237.256 90.51 90.508 146.744-146.744 306.746 306.746 90.508-90.51-397.254-397.256z" />
<glyph unicode="&#xea53;" glyph-name="checkbox-unchecked" d="M896 960h-768c-70.4 0-128-57.6-128-128v-768c0-70.4 57.6-128 128-128h768c70.4 0 128 57.6 128 128v768c0 70.4-57.6 128-128 128zM896 64h-768v768h768v-768z" />
<glyph unicode="&#xea54;" glyph-name="radio-checked" d="M512 960c-282.77 0-512-229.23-512-512s229.23-512 512-512 512 229.23 512 512-229.23 512-512 512zM512 64c-212.078 0-384 171.922-384 384s171.922 384 384 384c212.078 0 384-171.922 384-384s-171.922-384-384-384zM320 448c0 106.039 85.961 192 192 192s192-85.961 192-192c0-106.039-85.961-192-192-192s-192 85.961-192 192z" />
<glyph unicode="&#xea56;" glyph-name="radio-unchecked" d="M512 960c-282.77 0-512-229.23-512-512s229.23-512 512-512 512 229.23 512 512-229.23 512-512 512zM512 64c-212.078 0-384 171.922-384 384s171.922 384 384 384c212.078 0 384-171.922 384-384s-171.922-384-384-384z" />
</font>
</defs>
</svg>
